Free Websites at Nation2.com


Total Visits: 2939
The Dead Lands 2014 720p Blu-ray

the dead lands 2014 720p blu-ray

 

The Dead Lands 2014 720p Blu-ray -> http://urlin.us/62f6o

 

 

 

 

 

 

 

 

 

 

 

 

 

 

 

 

 

 

 

 

 

 

 

 

 

 

 

 

 

 

 

 

 

 

 

 

 

 

 

 

 

 

 

 

 

 

 

 

 

 

 

 

 

 

 

 

 

The Dead Lands 2014 720p Blu-ray, legal high sp 1080p hdtv

 

fcca2f3a81

: 1179: 2 The.Dead.Lands.2014.SUBBED.720p.BluRay.x264-MELiTE 4.37GB [] sharing sharing 4589 8068314589 4589 2015-4-4 09:53:17 b6f60e5ac2aa7ecf5b96f61ba12245b9372363ec.jpg (61.99 KB, : 0) 2015-4-4 09:48 The Dead Lands 2014 IMDB 6.8/10 from 299 users 1h 47mn Toa Fraser James Rolleston .Hongi Lawrence Makoare .The Warrior Te Kohe Tuhaka .Wirepa Xavier Horan .Rangi Raukura Turei .Mehe George Henare .Tane Rena Owen .Grandmother Pana Hema Taylor .Mana Calvin Tuteao .Ka Jamus Webster .Tahi Bianca Hyslop .Pipi Isabella Rakete .Keri Matariki Whatarau .Tama Wairangi Koopu .Raupatu Jeff Ruha .Mere HongiHongiHongi movie-the-dead-lands-by-toa-fraser-s3-mask9.jpg (97.14 KB, : 0) 2015-4-4 09:50 movie-the-dead-lands-by-toa-fraser-s1-mask9.jpg (74.02 KB, : 0) 2015-4-4 09:50 movie-the-dead-lands-by-toa-fraser-s2-mask9.jpg (69.11 KB, : 0) 2015-4-4 09:50 .The.Dead.Lands.2014.SUBBED.1080p.BluRay.x264-MELiTE.torrent (77.15 KB, : 854) 2015-4-4 09:53 : 10 .The.Dead.Lands.2014.SUBBED.720p.BluRay.x264-MELiTE.torrent (175.33 KB, : 739) 2015-4-4 09:51 : 10 , BT The.Forger.2014.720p.WEBRip.x264.AAC2.0-FGT 1.79GB[]S.for.Sex.S.for.Secrets.2014.720p.BluRay.x264.DTS-WiKi 5.52G 0 " The.Forger.2014.720p.WEBRip.x264.AAC2.0-FGT 1.79GB " [7][ Furious.7][2015][3.0GB][][BT][] " 4..The.Marine.4.Moving.Target.2015 2.71GB " [/] Flirting.Scholar.1993.720p.BluRay.x264-WiKi 8.58 GiB " The.Admiral.Roaring.Currents.2014.LIMITED.720p.BluRay.x264-GECKOS 7GB " [The.Way.He.Looks] ..2014.BD1080P.X264.AAC.Portuguese.CHS " jeanswu jeanswu 543 0400543 , 543, 457 , 543, 457 543 2015-4-5 10:19:11 Hongi i i 149 10129149 , 149, 51 , 149, 51 149 2015-7-30 00:30:14 The.Dead.Lands.2014.SUBBED.720p.BluRay.x264-MELiTE, : B Color Image Link Quote Code Smilies . .. .. : . 2017-03-13 20:34:46 : :0 :0 : 0.0 .Suc [MKV] appcht 2016 0 667 03-13,03-13 0.0 .The [MP4] dennis1234 2016 0 252 03-12,03-12 0.0 .Ge [MP4] dennis1234 2016 0 90 03-13,03-13 0.0 .Brims [RMVB] dennis1234 2016 0 52 03-14,03-14 0.0 .Bu [MKV] 2016 0 157 03-13,03-13 0.0 [MP4] dennis1234 2016 0 943 03-13,03-13 0.0 [ [MKV] nowys 2016 0 468 03-13,03-13 0.0 [MKV] nowys 2016 0 417 03-13,03-13 1.0 16Voi [TVRip] appcht 2016 2 147 03-13,03-13 0.0 .Ame [MP4] dennis1234 2016 0 506 03-13,03-13 0.0 [MKV] 2016 0 134 03-13,03-13 0.0 16 [TVRip] appcht 2016 0 60 03-13,03-13 0.0 [ [MP4] 2016 0 60 03-13,03-13 0.0 .K [MKV] dennis1234 2016 0 743 03-13,03-13 0.0 [ [MKV] nowys 2016 0 902 03-13,03-13 0.0 CCTVB [TVRip] appcht 2016 0 78 03-13,03-13 0.0 Vir [HDTVRip] 2016 0 245 03-13,03-13 0.0 [][ [MP4] 2016 0 412 03-12,03-12 0.0 S [MP4] 2016 0 178 03-13,03-13 0.0 .The [MP4] dennis1234 2016 0 463 03-12,03-12 .

 

[url= [url= QvoCD [url= : 1. 2. 4 [MKV] BBC(BBC:The Chinese Are Coming) MKV : BBC : BBC The Chinese Are Coming : : : HR-HDTV,RMVB : 2011 : : Justin Rowlatt : : : Justin Rowlatt . RMVBMKV720P1080P RMVBMKV720P1080P . 3. The.Dead.Lands.2014.SUBBED.720p.BluRay.x264-MELiTE 2015-04-04 08:29 2 1568 773 720P 6.8 6.8 2014 2014 4.37 GB 2015-04-04 08:29 107 Screenshots: is proud to present: The.Dead.Lands.2014.SUBBED.720p.BluRay.x264-MELiTE ViDEO: 1280 x 536 4 303 Kbps AUDiO: MAO DTS 5.1 1 509 Kbps RUNTiME: 1h 47mn Language: Maori Subtitle(s): English RATiNG: 6.8/10 from 299 users iMDb: iMARS - AN0NYM0US - VBT pH7 & 0ND of SiLK 2 0 1 2 [+] MediaInfo Video ID : 1 Format : AVC Format/Info : Advanced Video Codec Format profile : HighL4.1 Format settings, CABAC : Yes Format settings, ReFrames : 5 frames Codec ID : VMPEG4/ISO/AVC Duration : 1h 47mn Bit rate : 4 303 Kbps Width : 1 280 pixels Height : 536 pixels Display aspect ratio : 2.40:1 Frame rate mode : Constant Frame rate : 23.976 fps Color space : YUV Chroma subsampling : 4:2:0 Bit depth : 8 bits Scan type : Progressive Bits/(Pixel*Frame) : 0.262 Stream size : 3.15 GiB (72%) Writing library : x264 core 146 r2538 121396c Encoding settings : cabac=1 / ref=5 / deblock=1:0:0 / analyse=0x3:0x113 / me=umh / subme=8 / psy=1 / psyrd=1.00:0.00 / mixedref=1 / merange=16 / chromame=1 / trellis=1 / 8x8dct=1 / cqm=0 / deadzone=21,11 / fastpskip=0 / chromaqpoffset=-2 / threads=12 / lookaheadthreads=2 / slicedthreads=0 / nr=0 / decimate=1 / interlaced=0 / bluraycompat=0 / constrainedintra=0 / bframes=3 / bpyramid=2 / badapt=2 / bbias=0 / direct=3 / weightb=1 / opengop=0 / weightp=2 / keyint=250 / keyintmin=23 / scenecut=40 / intrarefresh=0 / rclookahead=50 / rc=2pass / mbtree=1 / bitrate=4303 / ratetol=1.0 / qcomp=0.60 / qpmin=0 / qpmax=69 / qpstep=4 / cplxblur=20.0 / qblur=0.5 / ipratio=1.40 / aq=1:1.00 Language : English Default : Yes Forced : No DURATION : 01:47:32.279000000 NUMBEROFFRAMES : 154700 NUMBEROFBYTES : 3469671328 STATISTICSWRITINGAPP : mkvmerge v7.2.0 ('On Every Street') 64bit built on Sep 13 2014 15:52:10 STATISTICSWRITINGDATEUTC : 2015-04-02 19:34:36 STATISTICSTAGS : BPS DURATION NUMBEROFFRAMES NUMBEROFBYTES Audio ID : 2 Format : DTS Format/Info : Digital Theater Systems Mode : 16 Format settings, Endianness : Big Codec ID : ADTS Duration : 1h 47mn Bit rate mode : Constant Bit rate : 1 509 Kbps Channel(s) : 6 channels Channel positions : Front: L C R, Side: L R, LFE Sampling rate : 48.0 KHz Bit depth : 24 bits Compression mode : Lossy Stream size : 1.13 GiB (26%) Language : Maori Default : Yes Forced : No Text ID : 3 Format : UTF-8 Codec ID : STEXT/UTF8 Codec ID/Info : UTF-8 Plain Text Language : English Default : Yes Forced : No Menu 00:00:00.000 : en:00:00:00.000 00:10:01.684 : en:00:10:01.684 00:20:01.992 : en:00:20:01.992 00:28:17.279 : en:00:28:17.279 00:36:24.057 : en:00:36:24.057 00:45:04.827 : en:00:45:04.827 00:53:35.671 : en:00:53:35.671 01:04:01.379 : en:01:04:01.379 01:16:31.462 : en:01:16:31.462 01:20:56.560 : en:01:20:56.560 01:28:42.484 : en:01:28:42.484 01:38:30.988 : en:01:38:30.988 The.Dead.Lands.2014.1080p.BluRay.REMUX.AVC.DTS-HD.MA.5.1-RARBG Remux 25.85 GB abcnnt The.Dead.Lands.2014.1080p.BluRay.AVC.DTS-HD.MA.5.1-RARBG 45.85 GB abcnnt The.Dead.Lands.2014.SUBBED.1080p.BluRay.x264-MELiTE 1080P 7.65 GB abcnnt roger6699 #1 2015-07-29 10:48 0 0 toutiao #0 2015-04-04 19:55 0 0 20172015-12-15 bug 1 23 3 4 5 63 7 8 9 103 . .. The.Dead.Lands.2014.SUBBED.720p.BluRay 0.0 0 0 [Blu-ray] 2014 /() 331 2015-07-29 23:46:03 2015-07-29 23:46:03 m-tdl-720p.mkv 4.37 GB //: / The Dead Lands 2014 / 2014-10-30() IMDb 6.3/10 from 1,825 users 107 Toa Fraser James Rolleston Rena Owen Pana Hema-Taylor Lawrence Makoare George Henare After his tribe is slaughtered through an act of treachery, Hongi, a Maori chieftains teenage son, must avenge his fathers murder in order to bring peace and honor to the souls of his loved ones.

 

/ The Dead Lands 2014 / IMDb 6.3/10 from 1,834 users 107 Toa Fraser James Rolleston Rena Owen Pana Hema-Taylor Lawrence Makoare George Henare HongiHongi“”“”Hongi QQ360/ []The.Dead.Lands 2014.BluRay.720p.x264.AC3-CMCT[//3.20G] [()]2007.BluRay.720p.X264.AC3.MKV[/2.99G] 09-13 40844 []2013.BluRay.720p.X264.AC3.MKV-CNXP[//2.59G] 09-10 2339 [08.06][][][][DVD-MKV/1.4G][][1024] 09-13 6054 [4()].2012.BluRay.720p.x264.AC3-CMCT[/3G] 09-12 4550 [2007][][][][DVD-mkv/1.4g][/] 09-13 4572 .Fury.shjo.noraneko.no.seishun.1973.DVD.MiniSD-TLF 02-02 521 [2]2015.BluRay.720P.X264.AC3-CNXP[//3.3G] 12-17 4990 [2007][1408][BD-720P.MKV][] 03-30 1723 3D[/]2011.DC.REPACK.BD.720P.x264.AAC.CHS 08-06 3798 [][BD-MKV/2.18G][720P][][] 09-10 1448 . Copyright 2013-2017 xixiHD.com Email:adminxixihd.com . .. MKV[]The.Dead.Lands 2014.BluRay.720p.x264.AC3-CMCT[//3.20G]. WEB-DL 3D . 4. 80.61KB.

diferencia entre hd 1080p y 720p tv
racing cars hd wallpapers 1080p corvette
how the universe works supernovas 720p
video 1080p test tv inverter
teledyski hd 1080p 2013 tx68
k-on live come with me backstage 720p
download lovely complex sub indo 720p or 1080i
obs 1080p 60fps settings menu
true detective s01e07 720p movies
videos full hd 1080p mp4 movie